<?xml version="1.0" standalone="no"?>
<!DOCTYPE svg PUBLIC "-//W3C//DTD SVG 1.1//EN" "http://www.w3.org/Graphics/SVG/1.1/DTD/svg11.dtd" >
<svg xmlns="http://www.w3.org/2000/svg">
<metadata>
<json>
<![CDATA[
{
	"fontFamily": "SliderKits-Icons",
	"majorVersion": 1,
	"minorVersion": 1,
	"fontURL": "https://phosphoricons.com",
	"description": "A flexible icon family for everyone\nFont generated by IcoMoon.",
	"copyright": "Phosphor Icons",
	"designer": "Tobias Fried & Helena Zhang",
	"designerURL": "https://phosphoricons.com",
	"license": "MIT",
	"licenseURL": "https://raw.githubusercontent.com/phosphor-icons/phosphor-web/master/LICENSE",
	"version": "Version 1.1",
	"fontId": "SliderKits-Icons",
	"psName": "SliderKits-Icons",
	"subFamily": "Regular",
	"fullName": "SliderKits-Icons"
}
]]>
</json>
</metadata>
<defs>
<font id="SliderKits-Icons" horiz-adv-x="1024">
<font-face units-per-em="1024" ascent="1024" descent="0" />
<missing-glyph horiz-adv-x="1024" />
<glyph unicode="&#x20;" horiz-adv-x="512" d="" />
<glyph unicode="&#xf122;" glyph-name="arrow-circle-down-light" data-tags="arrow-circle-down-light" d="M512 920c-225.332 0-408-182.668-408-408s182.668-408 408-408c225.332 0 408 182.668 408 408v0c-0.263 225.227-182.774 407.738-407.975 408h-0.025zM512 152c-198.823 0-360 161.177-360 360s161.177 360 360 360c198.823 0 360-161.177 360-360v0c-0.232-198.729-161.271-359.767-359.977-360h-0.023zM664.734 504.734c4.343-4.343 7.030-10.343 7.030-16.971s-2.686-12.628-7.030-16.971l-135.764-135.764c-4.343-4.343-10.343-7.029-16.971-7.029s-12.627 2.686-16.971 7.029l-135.764 135.764c-4.343 4.343-7.029 10.343-7.029 16.971 0 13.255 10.745 24 24 24 6.627 0 12.628-2.686 16.971-7.029l94.793-94.793v262.059c0 13.255 10.745 24 24 24s24-10.745 24-24v0-262.059l94.793 94.793c4.343 4.343 10.343 7.030 16.971 7.030s12.628-2.686 16.971-7.030v0z" />
<glyph unicode="&#xf124;" glyph-name="arrow-circle-left-light" data-tags="arrow-circle-left-light" d="M512 920c-225.332 0-408-182.668-408-408s182.668-408 408-408c225.332 0 408 182.668 408 408v0c-0.263 225.227-182.774 407.738-407.975 408h-0.025zM512 152c-198.823 0-360 161.177-360 360s161.177 360 360 360c198.823 0 360-161.177 360-360v0c-0.232-198.729-161.271-359.767-359.977-360h-0.023zM696 512c-0.001-13.255-10.745-23.999-24-24h-262.059l94.793-94.793c4.343-4.343 7.029-10.343 7.029-16.971 0-13.255-10.745-24-24-24-6.627 0-12.628 2.686-16.971 7.029l-135.764 135.764c-4.343 4.343-7.030 10.343-7.030 16.971s2.686 12.628 7.030 16.971l135.764 135.764c4.343 4.343 10.343 7.029 16.971 7.029 13.255 0 24-10.745 24-24 0-6.627-2.686-12.628-7.029-16.971v0l-94.793-94.793h262.059c13.255-0.001 23.999-10.745 24-24v0z" />
<glyph unicode="&#xf125;" glyph-name="arrow-circle-right-light" data-tags="arrow-circle-right-light" d="M512 920c-225.332 0-408-182.668-408-408s182.668-408 408-408c225.332 0 408 182.668 408 408v0c-0.263 225.227-182.774 407.738-407.975 408h-0.025zM512 152c-198.823 0-360 161.177-360 360s161.177 360 360 360c198.823 0 360-161.177 360-360v0c-0.232-198.729-161.271-359.767-359.977-360h-0.023zM688.971 528.971c4.343-4.343 7.030-10.343 7.030-16.971s-2.686-12.628-7.030-16.971l-135.764-135.764c-4.343-4.343-10.343-7.029-16.971-7.029-13.255 0-24 10.745-24 24 0 6.627 2.686 12.628 7.029 16.971v0l94.793 94.793h-262.059c-13.255 0-24 10.745-24 24s10.745 24 24 24v0h262.059l-94.793 94.793c-4.343 4.343-7.029 10.343-7.029 16.971 0 13.255 10.745 24 24 24 6.627 0 12.628-2.686 16.971-7.029v0z" />
<glyph unicode="&#xf127;" glyph-name="arrow-circle-up-light" data-tags="arrow-circle-up-light" d="M512 920c-225.332 0-408-182.668-408-408s182.668-408 408-408c225.332 0 408 182.668 408 408v0c-0.263 225.227-182.774 407.738-407.975 408h-0.025zM512 152c-198.823 0-360 161.177-360 360s161.177 360 360 360c198.823 0 360-161.177 360-360v0c-0.232-198.729-161.271-359.767-359.977-360h-0.023zM664.734 553.207c4.343-4.343 7.029-10.343 7.029-16.971 0-13.255-10.745-24-24-24-6.627 0-12.628 2.686-16.971 7.029l-94.793 94.793v-262.059c0-13.255-10.745-24-24-24s-24 10.745-24 24v0 262.059l-94.793-94.793c-4.343-4.343-10.343-7.029-16.971-7.029-13.255 0-24 10.745-24 24 0 6.627 2.686 12.628 7.029 16.971v0l135.764 135.764c4.343 4.343 10.343 7.030 16.971 7.030s12.628-2.686 16.971-7.030v0z" />
<glyph unicode="&#xf12c;" glyph-name="arrow-down-light" data-tags="arrow-down-light" d="M816.971 431.031l-288-288c-4.343-4.344-10.343-7.031-16.971-7.031s-12.628 2.687-16.971 7.031l-288 288c-4.337 4.342-7.019 10.338-7.019 16.96 0 13.254 10.745 23.999 23.999 23.999 6.623 0 12.619-2.683 16.962-7.021v0l247.029-247.027v646.059c0 13.255 10.745 24 24 24s24-10.745 24-24v0-646.059l247.029 247.027c4.342 4.338 10.339 7.021 16.962 7.021 13.254 0 23.999-10.745 23.999-23.999 0-6.622-2.682-12.618-7.019-16.96v0z" />
<glyph unicode="&#xf144;" glyph-name="arrow-left-light" data-tags="arrow-left-light" d="M888 512c-0.001-13.255-10.745-23.999-24-24h-646.059l247.029-247.031c4.348-4.344 7.037-10.347 7.037-16.978 0-13.254-10.745-23.999-23.999-23.999-6.632 0-12.636 2.69-16.98 7.039v0l-288 288c-4.343 4.342-7.030 10.342-7.030 16.969s2.686 12.626 7.030 16.969l288 288c4.344 4.349 10.348 7.039 16.98 7.039 13.254 0 23.999-10.745 23.999-23.999 0-6.631-2.689-12.634-7.037-16.978v0l-247.029-247.031h646.059c13.255-0.001 23.999-10.745 24-24v0z" />
<glyph unicode="&#xf14d;" glyph-name="arrow-right-light" data-tags="arrow-right-light" d="M880.971 495.031l-288-288c-4.342-4.338-10.339-7.021-16.962-7.021-13.254 0-23.999 10.745-23.999 23.999 0 6.622 2.682 12.618 7.019 16.96v0l247.029 247.031h-646.059c-13.255 0-24 10.745-24 24s10.745 24 24 24v0h646.059l-247.029 247.031c-4.337 4.342-7.019 10.338-7.019 16.96 0 13.254 10.745 23.999 23.999 23.999 6.623 0 12.619-2.683 16.962-7.021v0l288-288c4.343-4.342 7.030-10.342 7.030-16.969s-2.686-12.626-7.030-16.969v0z" />
<glyph unicode="&#xf155;" glyph-name="arrows-in-simple-light" data-tags="arrows-in-simple-light" d="M848.969 815.031l-183.031-183.031h134.062c13.255 0 24-10.745 24-24s-10.745-24-24-24v0h-192c-1.565 0.005-3.091 0.159-4.568 0.449l0.152-0.025c-0.078 0.015-0.156 0.020-0.232 0.035-1.598 0.322-2.995 0.749-4.331 1.294l0.159-0.057c-0.1 0.040-0.201 0.069-0.301 0.11-1.504 0.627-2.787 1.316-3.994 2.11l0.090-0.056c-0.082 0.054-0.168 0.097-0.248 0.151-2.681 1.8-4.917 4.036-6.662 6.631l-0.055 0.086c-0.053 0.079-0.096 0.162-0.146 0.241-0.74 1.119-1.43 2.404-1.999 3.752l-0.059 0.158c-0.039 0.099-0.070 0.2-0.109 0.298-0.487 1.177-0.914 2.574-1.21 4.019l-0.026 0.154c-0.016 0.078-0.021 0.155-0.035 0.233-0.265 1.325-0.419 2.851-0.424 4.412v192.004c0 13.255 10.745 24 24 24s24-10.745 24-24v0-134.062l183.031 183.031c4.343 4.343 10.342 7.029 16.969 7.029 13.253 0 23.997-10.744 23.997-23.997 0-6.627-2.686-12.626-7.029-16.969v0zM439.541 420.649c-0.322 1.598-0.749 2.995-1.294 4.331l0.057-0.159c-0.039 0.1-0.070 0.201-0.109 0.3-0.629 1.506-1.318 2.791-2.114 3.999l0.056-0.090c-0.051 0.080-0.094 0.162-0.146 0.241-1.8 2.68-4.035 4.916-6.629 6.661l-0.086 0.055c-0.082 0.055-0.168 0.1-0.252 0.153-1.115 0.738-2.397 1.425-3.741 1.994l-0.157 0.059c-0.102 0.042-0.205 0.072-0.309 0.112-1.175 0.487-2.57 0.913-4.013 1.209l-0.153 0.026c-0.078 0.015-0.156 0.021-0.236 0.036-1.325 0.264-2.85 0.418-4.41 0.423h-192.004c-13.255 0-24-10.745-24-24s10.745-24 24-24v0h134.062l-183.031-183.031c-4.343-4.343-7.029-10.342-7.029-16.969 0-13.253 10.744-23.997 23.997-23.997 6.627 0 12.626 2.686 16.969 7.029l183.031 183.031v-134.062c0-13.255 10.745-24 24-24s24 10.745 24 24v0 192c-0.005 1.565-0.159 3.091-0.449 4.568l0.025-0.152c-0.014 0.078-0.019 0.156-0.035 0.233z" />
<glyph unicode="&#xf15b;" glyph-name="arrows-out-simple-light" data-tags="arrows-out-simple-light" d="M856 832v-192c0-13.255-10.745-24-24-24s-24 10.745-24 24v0 134.061l-183.031-183.031c-4.342-4.337-10.338-7.019-16.96-7.019-13.254 0-23.999 10.745-23.999 23.999 0 6.623 2.683 12.619 7.021 16.962v0l183.029 183.029h-134.061c-13.255 0-24 10.745-24 24s10.745 24 24 24v0h192c1.569-0.005 3.099-0.16 4.58-0.451l-0.152 0.025c0.072-0.013 0.146-0.019 0.219-0.033 1.599-0.322 2.996-0.749 4.333-1.294l-0.159 0.057c0.102-0.040 0.203-0.070 0.303-0.111 1.499-0.626 2.779-1.312 3.983-2.104l-0.090 0.056c0.086-0.057 0.178-0.103 0.264-0.16 2.676-1.799 4.909-4.032 6.652-6.623l0.055-0.086c0.057-0.083 0.102-0.17 0.154-0.254 0.738-1.116 1.426-2.397 1.994-3.742l0.059-0.157c0.041-0.102 0.072-0.204 0.111-0.306 0.487-1.176 0.914-2.572 1.21-4.015l0.026-0.153c0.016-0.078 0.021-0.156 0.035-0.234 0.265-1.325 0.419-2.851 0.424-4.412v-0.004zM399.031 432.971l-183.031-183.031v134.061c0 13.255-10.745 24-24 24s-24-10.745-24-24v0-192c0.005-1.565 0.159-3.091 0.449-4.568l-0.025 0.152c0.014-0.078 0.020-0.156 0.035-0.234 0.322-1.596 0.749-2.992 1.294-4.327l-0.057 0.159c0.039-0.102 0.070-0.204 0.111-0.306 0.627-1.501 1.314-2.783 2.108-3.988l-0.056 0.090c0.053-0.084 0.098-0.171 0.154-0.254 1.798-2.677 4.032-4.911 6.623-6.655l0.086-0.055c0.084-0.057 0.174-0.103 0.26-0.158 1.114-0.737 2.395-1.423 3.738-1.99l0.157-0.059c0.102-0.042 0.205-0.072 0.307-0.112 1.176-0.487 2.572-0.914 4.015-1.209l0.153-0.026c0.076-0.016 0.154-0.021 0.232-0.035 1.325-0.265 2.851-0.419 4.412-0.424h192.004c13.255 0 24 10.745 24 24s-10.745 24-24 24v0h-134.061l183.029 183.029c4.338 4.342 7.021 10.339 7.021 16.962 0 13.254-10.745 23.999-23.999 23.999-6.622 0-12.618-2.682-16.96-7.019v0z" />
<glyph unicode="&#xf169;" glyph-name="arrow-up-light" data-tags="arrow-up-light" d="M816.971 559.031c-4.343-4.344-10.343-7.031-16.971-7.031s-12.628 2.687-16.971 7.031l-247.029 247.027v-646.059c0-13.255-10.745-24-24-24s-24 10.745-24 24v0 646.059l-247.029-247.027c-4.342-4.338-10.339-7.021-16.962-7.021-13.254 0-23.999 10.745-23.999 23.999 0 6.622 2.682 12.618 7.019 16.96v0l288 288c4.343 4.344 10.343 7.031 16.971 7.031s12.628-2.687 16.971-7.031l288-288c4.343-4.342 7.030-10.342 7.030-16.969s-2.686-12.626-7.030-16.969v0z" />
<glyph unicode="&#xf1a3;" glyph-name="caret-circle-down-light" data-tags="caret-circle-down-light" d="M512 920c-225.332 0-408-182.668-408-408s182.668-408 408-408c225.332 0 408 182.668 408 408v0c-0.263 225.227-182.774 407.738-407.975 408h-0.025zM512 152c-198.823 0-360 161.177-360 360s161.177 360 360 360c198.823 0 360-161.177 360-360v0c-0.232-198.729-161.271-359.767-359.977-360h-0.023zM672.055 577.84c4.888-4.411 7.946-10.768 7.946-17.84 0-6.184-2.339-11.821-6.18-16.076l0.019 0.021-144-160c-4.411-4.887-10.768-7.945-17.84-7.945s-13.429 3.058-17.821 7.924l-0.019 0.021-144 160c-3.831 4.236-6.176 9.88-6.176 16.071 0 13.255 10.745 24 24 24 7.080 0 13.443-3.065 17.836-7.941l0.019-0.021 126.16-140.18 126.16 140.18c4.411 4.887 10.769 7.945 17.84 7.945 6.183 0 11.821-2.338 16.076-6.179l-0.021 0.019z" />
<glyph unicode="&#xf1a4;" glyph-name="caret-circle-left-light" data-tags="caret-circle-left-light" d="M512 920c-225.332 0-408-182.668-408-408s182.668-408 408-408c225.332 0 408 182.668 408 408v0c-0.263 225.227-182.774 407.738-407.975 408h-0.025zM512 152c-198.823 0-360 161.177-360 360s161.177 360 360 360c198.823 0 360-161.177 360-360v0c-0.232-198.729-161.271-359.767-359.977-360h-0.023zM592.055 638.16l-140.178-126.16 140.178-126.16c4.875-4.41 7.925-10.759 7.925-17.821 0-13.255-10.745-24-24-24-6.174 0-11.803 2.331-16.055 6.161l0.022-0.019-160 144c-4.887 4.411-7.945 10.768-7.945 17.84s3.058 13.429 7.924 17.821l0.021 0.019 160 144c4.234 3.822 9.871 6.16 16.055 6.16 13.255 0 24-10.745 24-24 0-7.072-3.058-13.429-7.925-17.821l-0.021-0.019z" />
<glyph unicode="&#xf1a5;" glyph-name="caret-circle-right-light" data-tags="caret-circle-right-light" d="M512 920c-225.332 0-408-182.668-408-408s182.668-408 408-408c225.332 0 408 182.668 408 408v0c-0.263 225.227-182.774 407.738-407.975 408h-0.025zM512 152c-198.823 0-360 161.177-360 360s161.177 360 360 360c198.823 0 360-161.177 360-360v0c-0.232-198.729-161.271-359.767-359.977-360h-0.023zM640.055 529.84c4.887-4.411 7.945-10.768 7.945-17.84s-3.058-13.429-7.924-17.821l-0.021-0.019-160-144c-4.237-3.833-9.882-6.179-16.076-6.179-13.255 0-24 10.745-24 24 0 7.081 3.067 13.447 7.945 17.84l0.022 0.019 140.178 126.16-140.178 126.16c-4.887 4.411-7.946 10.768-7.946 17.84 0 13.255 10.745 24 24 24 6.183 0 11.821-2.338 16.076-6.179l-0.021 0.019z" />
<glyph unicode="&#xf1a6;" glyph-name="caret-circle-up-light" data-tags="caret-circle-up-light" d="M800.5 800.5c-73.834 73.834-175.834 119.501-288.5 119.501-225.333 0-408.001-182.668-408.001-408.001 0-112.666 45.667-214.666 119.501-288.5v0c73.834-73.834 175.834-119.501 288.5-119.501 225.333 0 408.001 182.668 408.001 408.001 0 112.666-45.667 214.666-119.501 288.5v0zM766.559 257.441c-65.147-65.147-155.147-105.441-254.558-105.441-198.823 0-360 161.177-360 360s161.177 360 360 360c99.411 0 189.411-40.294 254.558-105.441v0c65.437-65.014 105.939-155.057 105.939-254.559s-40.502-189.545-105.92-254.54l-0.019-0.019zM673.84 464.055c3.811-4.231 6.142-9.86 6.142-16.034 0-13.255-10.745-24-24-24-7.062 0-13.411 3.050-17.803 7.904l-0.018 0.021-126.16 140.178-126.16-140.178c-4.411-4.887-10.768-7.946-17.84-7.946-13.255 0-24 10.745-24 24 0 6.183 2.338 11.821 6.179 16.076l-0.019-0.021 144 160c4.411 4.887 10.768 7.945 17.84 7.945s13.429-3.058 17.821-7.924l0.019-0.021z" />
<glyph unicode="&#xf28b;" glyph-name="info-light" data-tags="info-light" d="M512.002 920.001c-225.332 0-408-182.668-408-408s182.668-408 408-408c225.332 0 408 182.668 408 408v0c-0.263 225.227-182.774 407.738-407.975 408h-0.025zM512.002 152.001c-198.823 0-360 161.177-360 360s161.177 360 360 360c198.823 0 360-161.177 360-360v0c-0.232-198.729-161.271-359.767-359.977-360h-0.023zM568.002 320.001c-0.001-13.255-10.745-23.999-24-24h-32c-13.255 0.001-23.999 10.745-24 24v0 200h-8c-13.255 0-24 10.745-24 24s10.745 24 24 24v0h32c13.255-0.001 23.999-10.745 24-24v0-200h8c13.255-0.001 23.999-10.745 24-24v0zM483.717 659.716c-7.238 7.239-11.714 17.238-11.714 28.283 0 22.092 17.909 40.002 40.002 40.002s40.001-17.908 40.002-40v0-0.012c-0.009-22.087-17.916-39.988-40.004-39.988-11.046 0-21.046 4.477-28.285 11.715v0z" />
<glyph unicode="&#xf298;" glyph-name="link-light" data-tags="link-light" d="M834.439 551.602l-113.133-113.141c-36.218-36.138-86.21-58.484-141.422-58.484s-105.204 22.346-141.426 58.488l0.004-0.004c-4.343 4.343-7.029 10.342-7.029 16.969 0 13.253 10.744 23.997 23.997 23.997 6.627 0 12.626-2.686 16.969-7.029v0c27.527-27.463 65.52-44.444 107.48-44.444 41.962 0 79.957 16.983 107.487 44.451l113.13 113.134c27.471 27.501 44.459 65.476 44.459 107.42 0 83.947-68.053 152-152 152-41.944 0-79.919-16.989-107.421-44.461l-79.194-79.194c-4.343-4.343-10.342-7.029-16.969-7.029-13.253 0-23.997 10.744-23.997 23.997 0 6.627 2.686 12.626 7.029 16.969l79.195 79.195c36.192 36.193 86.192 58.579 141.42 58.579 110.455 0 199.997-89.542 199.997-199.997 0-55.227-22.385-105.226-58.577-141.418v0zM517.658 302.695l-79.195-79.195c-27.507-27.507-65.507-44.52-107.48-44.52-83.947 0-152 68.053-152 152 0 41.974 17.013 79.974 44.52 107.48l113.133 113.137c27.527 27.465 65.522 44.448 107.484 44.448 41.96 0 79.954-16.982 107.483-44.447l-0.003 0.003c4.343-4.343 10.342-7.029 16.969-7.029 13.253 0 23.997 10.744 23.997 23.997 0 6.627-2.686 12.626-7.029 16.969v0c-36.217 36.14-86.21 58.488-141.422 58.488s-105.205-22.348-141.425-58.492l0.004 0.003-113.133-113.141c-36.192-36.192-58.577-86.191-58.577-141.418 0-110.455 89.542-199.997 199.997-199.997 55.228 0 105.228 22.386 141.42 58.579l79.195 79.195c4.343 4.343 7.029 10.342 7.029 16.969 0 13.253-10.744 23.997-23.997 23.997-6.627 0-12.626-2.686-16.969-7.029v0z" />
<glyph unicode="&#xf2aa;" glyph-name="magnifying-glass-light" data-tags="magnifying-glass-light" d="M912.934 144.97l-178.122 178.122c55.386 63.051 89.18 146.253 89.18 237.349 0 199.065-161.374 360.439-360.439 360.439s-360.439-161.374-360.439-360.439c0-199.065 161.374-360.439 360.439-360.439 91.081 0 174.271 33.783 237.724 89.502l-0.407-0.35 178.126-178.126c4.343-4.342 10.342-7.028 16.969-7.028 13.254 0 23.999 10.745 23.999 23.999 0 6.628-2.687 12.628-7.030 16.971v0zM151.992 560.002c0 172.312 139.687 311.999 311.999 311.999s311.999-139.687 311.999-311.999c0-172.312-139.687-311.999-311.999-311.999v0c-172.231 0.2-311.798 139.767-311.999 311.98v0.019z" />
<glyph unicode="&#xf2ab;" glyph-name="magnifying-glass-minus-light" data-tags="magnifying-glass-minus-light" d="M615.99 560.002c-0.001-13.255-10.745-23.999-24-24h-255.999c-13.255 0-24 10.745-24 24s10.745 24 24 24v0h255.999c13.255-0.001 23.999-10.745 24-24v0zM912.934 111.041c-4.343-4.343-10.342-7.029-16.969-7.029s-12.626 2.686-16.969 7.029l-178.126 178.126c-63.046-55.369-146.236-89.152-237.316-89.152-199.063 0-360.435 161.372-360.435 360.435s161.372 360.435 360.435 360.435c199.063 0 360.435-161.372 360.435-360.435 0-91.094-33.793-174.295-89.527-237.751l0.349 0.406 178.122-178.123c4.344-4.343 7.031-10.343 7.031-16.971s-2.687-12.628-7.031-16.971v0zM463.99 248.015c172.312 0 311.999 139.687 311.999 311.999s-139.687 311.999-311.999 311.999c-172.312 0-311.999-139.687-311.999-311.999v0c0.2-172.231 139.767-311.798 311.98-311.999h0.019z" />
<glyph unicode="&#xf2ac;" glyph-name="magnifying-glass-plus-light" data-tags="magnifying-glass-plus-light" d="M615.99 560.002c-0.001-13.255-10.745-23.999-24-24h-104v-104c0-13.255-10.745-24-24-24s-24 10.745-24 24v0 104h-104c-13.255 0-24 10.745-24 24s10.745 24 24 24v0h104v104c0 13.255 10.745 24 24 24s24-10.745 24-24v0-104h104c13.255-0.001 23.999-10.745 24-24v0zM912.934 111.044c-4.343-4.343-10.342-7.029-16.969-7.029s-12.626 2.686-16.969 7.029l-178.126 178.126c-63.046-55.369-146.236-89.152-237.317-89.152-199.063 0-360.435 161.372-360.435 360.435s161.372 360.435 360.435 360.435c199.063 0 360.435-161.372 360.435-360.435 0-91.094-33.793-174.295-89.527-237.752l0.349 0.406 178.122-178.123c4.344-4.343 7.031-10.343 7.031-16.971s-2.687-12.628-7.031-16.971v0zM775.989 560.017c0 172.312-139.687 311.999-311.999 311.999s-311.999-139.687-311.999-311.999c0-172.312 139.687-311.999 311.999-311.999v0c172.231 0.2 311.798 139.767 311.999 311.98v0.019z" />
<glyph unicode="&#xf2b8;" glyph-name="minus-light" data-tags="minus-light" d="M864 488h-704c-13.255 0-24 10.745-24 24s10.745 24 24 24v0h704c13.255 0 24-10.745 24-24s-10.745-24-24-24v0z" />
<glyph unicode="&#xf307;" glyph-name="play-light" data-tags="play-light" d="M320.027 103.939c-10.086 0.027-19.537 2.719-27.694 7.408l0.272-0.144c-17.182 9.615-28.607 27.701-28.607 48.455 0 0.136 0 0.272 0.001 0.408v-0.021 703.91c0 30.928 25.073 56 56.001 56 10.801 0 20.888-3.058 29.442-8.355l-0.24 0.138 575.906-351.955c16.179-10.010 26.797-27.656 26.797-47.783s-10.618-37.774-26.557-47.645l-0.24-0.138-575.906-351.955c-8.296-5.199-18.371-8.294-29.168-8.322h-0.008zM320.039 872.002c-1.456-0.016-2.817-0.411-3.992-1.091l0.039 0.021c-2.451-1.329-4.088-3.882-4.088-6.818 0-0.056 0.001-0.111 0.002-0.167v0.008-703.91c0-4.418 3.582-8 8.001-8 1.543 0 2.984 0.437 4.206 1.193l-0.034-0.020 575.906 351.955c2.311 1.43 3.828 3.951 3.828 6.826s-1.517 5.396-3.794 6.806l-0.034 0.020-575.906 351.955c-1.171 0.754-2.598 1.208-4.129 1.221h-0.003z" />
<glyph unicode="&#xf309;" glyph-name="plus-light" data-tags="plus-light" d="M888 512c-0.001-13.255-10.745-23.999-24-24h-328v-328c0-13.255-10.745-24-24-24s-24 10.745-24 24v0 328h-328c-13.255 0-24 10.745-24 24s10.745 24 24 24v0h328v328c0 13.255 10.745 24 24 24s24-10.745 24-24v0-328h328c13.255-0.001 23.999-10.745 24-24v0z" />
<glyph unicode="&#xf388;" glyph-name="twitter-logo-light" data-tags="twitter-logo-light" d="M320 135.996c-0.023 0-0.050 0-0.076 0-95.298 0-184.793 24.85-262.357 68.422l2.698-1.393c-7.416 4.188-12.341 12.018-12.341 20.998 0 13.138 10.542 23.814 23.628 24.031h0.020c87.798 1.261 169.645 25.624 240.069 67.261l-2.258-1.235c-125.543 99.176-205.384 251.409-205.384 422.29 0 50.942 7.096 100.227 20.353 146.92l-0.918-3.784c2.902 10.224 12.155 17.588 23.127 17.588 8.387 0 15.769-4.302 20.060-10.82l0.056-0.090c72.346-110.524 185.861-188.978 318.279-213.807l3.017-0.47q-0.056 2.268-0.056 4.539c0.007 101.622 82.39 184 184.013 184 63.22 0 118.994-31.882 152.121-80.445l0.409-0.635c46.616 2.762 90.228 11.606 131.362 25.772l-3.445-1.032c2.28 0.792 4.908 1.25 7.643 1.25 13.255 0 24-10.745 24-24 0-5.154-1.625-9.929-4.39-13.841l0.050 0.075c-34.754-49.369-75.987-91.303-123.063-125.723l-1.51-1.053c-16.969-282.298-250.052-504.813-535.108-504.818h-0.001zM164.404 209.395c46.42-16.090 99.92-25.388 155.591-25.399h0.005c263.356 0.002 477.988 208.614 487.665 469.604l0.026 0.882c0.285 7.832 4.28 14.673 10.271 18.853l0.078 0.052c28.935 20.119 54.23 41.952 77.060 66.138l0.22 0.235c-24.49-4.835-53.123-8.061-82.343-8.953l-0.812-0.020c-0.197-0.006-0.43-0.009-0.663-0.009-9.202 0-17.199 5.159-21.255 12.743l-0.063 0.129c-23.872 41.331-67.846 68.7-118.212 68.7-75.141 0-136.054-60.914-136.054-136.054 0-9.587 0.992-18.942 2.878-27.969l-0.155 0.884c0.427-1.694 0.671-3.638 0.671-5.639 0-13.266-10.754-24.020-24.020-24.020-1.178 0-2.337 0.085-3.47 0.249l0.129-0.015c-143.652 17.502-267.725 89.786-352.666 194.98l-0.794 1.016c-4.131-23.87-6.492-51.36-6.492-79.402 0-167.151 83.894-314.708 211.872-402.86l1.646-1.072c6.364-4.381 10.483-11.625 10.483-19.832s-4.119-15.452-10.403-19.78l-0.081-0.053c-57.213-39.521-124.822-68.62-197.751-82.842l-3.363-0.546z" />
<glyph unicode="&#xf3a9;" glyph-name="x-light" data-tags="x-light" d="M816.971 240.971c4.331-4.341 7.009-10.333 7.009-16.95 0-13.255-10.745-24-24-24-6.617 0-12.609 2.678-16.951 7.009v0l-271.029 271.029-271.029-271.029c-4.341-4.331-10.333-7.009-16.95-7.009-13.255 0-24 10.745-24 24 0 6.617 2.678 12.609 7.009 16.951v0l271.029 271.029-271.029 271.029c-4.331 4.341-7.009 10.333-7.009 16.95 0 13.255 10.745 24 24 24 6.617 0 12.609-2.678 16.951-7.009v0l271.029-271.029 271.029 271.029c4.341 4.331 10.333 7.009 16.95 7.009 13.255 0 24-10.745 24-24 0-6.617-2.678-12.609-7.009-16.951v0l-271.029-271.029z" />
<glyph unicode="&#xf3ab;" glyph-name="youtube-logo-light" data-tags="youtube-logo-light" d="M914.793 755.764c-7.205 45.375-50.297 86.559-96.187 91.818-91.991 10.607-198.592 16.658-306.606 16.658-108.057 0-214.701-6.056-319.608-17.847l12.876 1.176c-45.752-5.244-88.844-46.424-96.082-91.939-11.798-73.225-18.539-157.639-18.539-243.628 0-86.038 6.749-170.501 19.746-252.886l-1.185 9.118c7.215-45.379 50.309-86.56 96.187-91.812 91.936-10.609 198.47-16.662 306.417-16.662 0.066 0 0.132 0 0.198 0h-0.009c0.057 0 0.123 0 0.189 0 107.948 0 214.481 6.053 319.281 17.837l-12.741-1.162c45.76 5.234 88.854 46.418 96.086 91.937 11.798 73.225 18.539 157.639 18.539 243.626 0 86.038-6.749 170.5-19.746 252.885l1.185-9.118zM867.387 275.766c-3.848-24.217-29.617-48.82-54.082-51.641-90.402-10.423-195.159-16.369-301.305-16.369-106.133 0-210.877 5.945-313.918 17.519l12.649-1.154c-24.473 2.803-50.266 27.42-54.096 51.508-11.45 71.043-17.992 152.943-17.992 236.371 0 83.377 6.534 165.228 19.118 245.069l-1.148-8.838c3.852 24.227 29.648 48.846 53.992 51.637 90.429 10.428 195.216 16.377 301.393 16.377 106.132 0 210.876-5.944 313.917-17.518l-12.649 1.154c24.48-2.807 50.273-27.422 54.1-51.51 11.45-71.045 17.993-152.945 17.993-236.373 0-83.379-6.534-165.231-19.119-245.073l1.148 8.841zM653.312 531.969l-192 128c-3.741 2.525-8.351 4.031-13.313 4.031-13.255 0-24-10.745-24-24v0-256c0 0 0 0 0-0.001 0-13.254 10.745-23.999 23.999-23.999 4.962 0 9.572 1.506 13.399 4.085l-0.085-0.054 192 128c6.481 4.365 10.688 11.676 10.688 19.969s-4.206 15.604-10.602 19.915l-0.085 0.054zM472 428.844v166.312l124.734-83.156z" />
<glyph unicode="&#xf456;" glyph-name="caret-down-thin" data-tags="caret-down-thin" d="M512 304c-0.006 0-0.013 0-0.020 0-4.412 0-8.406 1.791-11.294 4.685v0l-320 320.001c-2.89 2.895-4.678 6.891-4.678 11.305 0 8.837 7.164 16 16 16 4.414 0 8.411-1.788 11.306-4.679v0l308.686-308.687 308.686 308.687c2.895 2.891 6.892 4.679 11.306 4.679 8.837 0 16-7.164 16-16 0-4.414-1.787-8.411-4.678-11.305v0l-320-320.001c-2.889-2.895-6.882-4.686-11.294-4.686-0.007 0-0.014 0-0.021 0h0.001z" />
<glyph unicode="&#xf457;" glyph-name="caret-left-thin" data-tags="caret-left-thin" d="M640 176c-0.006 0-0.013 0-0.020 0-4.412 0-8.406 1.791-11.294 4.686v0l-320 320c-2.895 2.895-4.686 6.895-4.686 11.313s1.791 8.418 4.686 11.313l320 320c2.895 2.891 6.892 4.679 11.306 4.679 8.837 0 16-7.164 16-16 0-4.414-1.787-8.411-4.678-11.305v0l-308.687-308.687 308.687-308.687c2.895-2.895 4.686-6.895 4.686-11.313 0-8.837-7.163-16-16-16 0 0 0 0-0.001 0v0z" />
<glyph unicode="&#xf458;" glyph-name="caret-right-thin" data-tags="caret-right-thin" d="M384 176c0 0 0 0-0.001 0-8.837 0-16 7.163-16 16 0 4.418 1.791 8.418 4.686 11.313l308.687 308.687-308.687 308.687c-2.89 2.895-4.678 6.891-4.678 11.305 0 8.837 7.164 16 16 16 4.414 0 8.411-1.788 11.306-4.679v0l320-320c2.895-2.895 4.686-6.895 4.686-11.313s-1.791-8.418-4.686-11.313l-320-320c-2.888-2.895-6.882-4.687-11.294-4.687-0.007 0-0.014 0-0.021 0h0.001z" />
<glyph unicode="&#xf459;" glyph-name="caret-up-thin" data-tags="caret-up-thin" d="M832 368c-0.006 0-0.013 0-0.020 0-4.412 0-8.406 1.791-11.294 4.685v0l-308.686 308.687-308.686-308.687c-2.895-2.89-6.891-4.677-11.305-4.677-8.837 0-16.001 7.164-16.001 16.001 0 4.414 1.787 8.41 4.677 11.305v0l320 320c2.896 2.894 6.896 4.685 11.314 4.685s8.418-1.79 11.315-4.685l320-320c2.896-2.896 4.687-6.896 4.687-11.314 0-8.837-7.163-16-16-16-0.001 0-0.001 0-0.002 0v0z" />
</font>
</defs>
</svg>
